  0
SECTION
  2
HEADER
  9
$ACADVER
  1
AC1014
  9
$ACADMAINTVER
 70
     9
  9
$DWGCODEPAGE
  3
ANSI_1252
  9
$INSBASE
 10
0.0
 20
0.0
 30
0.0
  9
$EXTMIN
 10
-0.4651343719249397
 20
4.825929962921128
 30
0.0
  9
$EXTMAX
 10
12.39120292039932
 20
8.150970737633343
 30
0.0
  9
$LIMMIN
 10
0.0
 20
0.0
  9
$LIMMAX
 10
12.0
 20
9.0
  9
$ORTHOMODE
 70
     0
  9
$REGENMODE
 70
     1
  9
$FILLMODE
 70
     1
  9
$QTEXTMODE
 70
     0
  9
$MIRRTEXT
 70
     1
  9
$DRAGMODE
 70
     2
  9
$LTSCALE
 40
1.0
  9
$OSMODE
 70
     0
  9
$ATTMODE
 70
     1
  9
$TEXTSIZE
 40
0.2
  9
$TRACEWID
 40
0.05
  9
$TEXTSTYLE
  7
STANDARD
  9
$CLAYER
  8
0
  9
$CELTYPE
  6
BYLAYER
  9
$CECOLOR
 62
   256
  9
$CELTSCALE
 40
1.0
  9
$DELOBJ
 70
     1
  9
$DISPSILH
 70
     0
  9
$DIMSCALE
 40
1.0
  9
$DIMASZ
 40
0.18
  9
$DIMEXO
 40
0.0625
  9
$DIMDLI
 40
0.38
  9
$DIMRND
 40
0.0
  9
$DIMDLE
 40
0.0
  9
$DIMEXE
 40
0.18
  9
$DIMTP
 40
0.0
  9
$DIMTM
 40
0.0
  9
$DIMTXT
 40
0.18
  9
$DIMCEN
 40
0.09
  9
$DIMTSZ
 40
0.0
  9
$DIMTOL
 70
     0
  9
$DIMLIM
 70
     0
  9
$DIMTIH
 70
     1
  9
$DIMTOH
 70
     1
  9
$DIMSE1
 70
     0
  9
$DIMSE2
 70
     0
  9
$DIMTAD
 70
     0
  9
$DIMZIN
 70
     0
  9
$DIMBLK
  1

  9
$DIMASO
 70
     1
  9
$DIMSHO
 70
     1
  9
$DIMPOST
  1

  9
$DIMAPOST
  1

  9
$DIMALT
 70
     0
  9
$DIMALTD
 70
     2
  9
$DIMALTF
 40
25.4
  9
$DIMLFAC
 40
1.0
  9
$DIMTOFL
 70
     0
  9
$DIMTVP
 40
0.0
  9
$DIMTIX
 70
     0
  9
$DIMSOXD
 70
     0
  9
$DIMSAH
 70
     0
  9
$DIMBLK1
  1

  9
$DIMBLK2
  1

  9
$DIMSTYLE
  2
STANDARD
  9
$DIMCLRD
 70
     0
  9
$DIMCLRE
 70
     0
  9
$DIMCLRT
 70
     0
  9
$DIMTFAC
 40
1.0
  9
$DIMGAP
 40
0.09
  9
$DIMJUST
 70
     0
  9
$DIMSD1
 70
     0
  9
$DIMSD2
 70
     0
  9
$DIMTOLJ
 70
     1
  9
$DIMTZIN
 70
     0
  9
$DIMALTZ
 70
     0
  9
$DIMALTTZ
 70
     0
  9
$DIMFIT
 70
     3
  9
$DIMUPT
 70
     0
  9
$DIMUNIT
 70
     2
  9
$DIMDEC
 70
     2
  9
$DIMTDEC
 70
     2
  9
$DIMALTU
 70
     2
  9
$DIMALTTD
 70
     2
  9
$DIMTXSTY
  7
STANDARD
  9
$DIMAUNIT
 70
     0
  9
$LUNITS
 70
     2
  9
$LUPREC
 70
     4
  9
$SKETCHINC
 40
0.1
  9
$FILLETRAD
 40
0.5
  9
$AUNITS
 70
     0
  9
$AUPREC
 70
     0
  9
$MENU
  1
.
  9
$ELEVATION
 40
0.0
  9
$PELEVATION
 40
0.0
  9
$THICKNESS
 40
0.0
  9
$LIMCHECK
 70
     0
  9
$BLIPMODE
 70
     0
  9
$CHAMFERA
 40
0.5
  9
$CHAMFERB
 40
0.5
  9
$CHAMFERC
 40
1.0
  9
$CHAMFERD
 40
0.0
  9
$SKPOLY
 70
     0
  9
$TDCREATE
 40
2452181.627457986
  9
$TDUPDATE
 40
2452643.320267013
  9
$TDINDWG
 40
0.0024971065
  9
$TDUSRTIMER
 40
0.0024971065
  9
$USRTIMER
 70
     1
  9
$ANGBASE
 50
0.0
  9
$ANGDIR
 70
     0
  9
$PDMODE
 70
     0
  9
$PDSIZE
 40
0.0
  9
$PLINEWID
 40
0.0
  9
$COORDS
 70
     1
  9
$SPLFRAME
 70
     0
  9
$SPLINETYPE
 70
     6
  9
$SPLINESEGS
 70
     8
  9
$ATTDIA
 70
     1
  9
$ATTREQ
 70
     1
  9
$HANDLING
 70
-16383
  9
$HANDSEED
  5
336
  9
$SURFTAB1
 70
     6
  9
$SURFTAB2
 70
     6
  9
$SURFTYPE
 70
     6
  9
$SURFU
 70
     6
  9
$SURFV
 70
     6
  9
$UCSNAME
  2

  9
$UCSORG
 10
0.0
 20
0.0
 30
0.0
  9
$UCSXDIR
 10
1.0
 20
0.0
 30
0.0
  9
$UCSYDIR
 10
0.0
 20
1.0
 30
0.0
  9
$PUCSNAME
  2

  9
$PUCSORG
 10
0.0
 20
0.0
 30
0.0
  9
$PUCSXDIR
 10
1.0
 20
0.0
 30
0.0
  9
$PUCSYDIR
 10
0.0
 20
1.0
 30
0.0
  9
$USERI1
 70
     0
  9
$USERI2
 70
     0
  9
$USERI3
 70
     0
  9
$USERI4
 70
     0
  9
$USERI5
 70
     0
  9
$USERR1
 40
0.0
  9
$USERR2
 40
0.0
  9
$USERR3
 40
0.0
  9
$USERR4
 40
0.0
  9
$USERR5
 40
0.0
  9
$WORLDVIEW
 70
     1
  9
$SHADEDGE
 70
     3
  9
$SHADEDIF
 70
    70
  9
$TILEMODE
 70
     1
  9
$MAXACTVP
 70
    64
  9
$PINSBASE
 10
0.0
 20
0.0
 30
0.0
  9
$PLIMCHECK
 70
     0
  9
$PEXTMIN
 10
1.000000000000000E+20
 20
1.000000000000000E+20
 30
1.000000000000000E+20
  9
$PEXTMAX
 10
-1.000000000000000E+20
 20
-1.000000000000000E+20
 30
-1.000000000000000E+20
  9
$PLIMMIN
 10
0.0
 20
0.0
  9
$PLIMMAX
 10
12.0
 20
9.0
  9
$UNITMODE
 70
     0
  9
$VISRETAIN
 70
     1
  9
$PLINEGEN
 70
     0
  9
$PSLTSCALE
 70
     1
  9
$TREEDEPTH
 70
  3020
  9
$PICKSTYLE
 70
     1
  9
$CMLSTYLE
  2
STANDARD
  9
$CMLJUST
 70
     0
  9
$CMLSCALE
 40
1.0
  9
$PROXYGRAPHICS
 70
     1
  9
$MEASUREMENT
 70
     0
  0
ENDSEC
  0
SECTION
  2
CLASSES
  0
CLASS
  1
ACDBDICTIONARYWDFLT
  2
AcDbDictionaryWithDefault
  3
AutoCAD 2000
 90
        0
280
     0
281
     0
  0
CLASS
  1
ACDBPLACEHOLDER
  2
AcDbPlaceHolder
  3
AutoCAD 2000
 90
        0
280
     0
281
     0
  0
CLASS
  1
LAYOUT
  2
AcDbLayout
  3
AutoCAD 2000
 90
        0
280
     0
281
     0
  0
CLASS
  1
LONG_TRANSACTION
  2
AcDbLongTransaction
  3
AutoCAD 2000
 90
        0
280
     0
281
     0
  0
CLASS
  1
LWPOLYLINE
  2
AcDbPolyline
  3
AutoCAD 2000
 90
        0
280
     0
281
     1
  0
CLASS
  1
HATCH
  2
AcDbHatch
  3
AutoCAD 2000
 90
        0
280
     0
281
     1
  0
CLASS
  1
XRECORD
  2
AcDbXrecord
  3
AutoCAD 2000
 90
        0
280
     0
281
     0
  0
ENDSEC
  0
SECTION
  2
TABLES
  0
TABLE
  2
VPORT
  5
8
330
0
100
AcDbSymbolTable
 70
     3
  0
VPORT
  5
30F
330
8
100
AcDbSymbolTableRecord
100
AcDbViewportTableRecord
  2
*ACTIVE
 70
     0
 10
0.0
 20
0.0
 11
1.0
 21
1.0
 12
6.366127220149565
 22
6.276071754311757
 13
0.0
 23
0.0
 14
0.5
 24
0.5
 15
0.5
 25
0.5
 16
0.0
 26
0.0
 36
1.0
 17
0.0
 27
0.0
 37
0.0
 40
9.96158912776119
 41
1.462515883100381
 42
50.0
 43
0.0
 44
0.0
 50
0.0
 51
0.0
 71
     0
 72
   100
 73
     1
 74
     3
 75
     0
 76
     0
 77
     0
 78
     0
  0
ENDTAB
  0
TABLE
  2
LTYPE
  5
5
330
0
100
AcDbSymbolTable
 70
     1
  0
LTYPE
  5
14
330
5
100
AcDbSymbolTableRecord
100
AcDbLinetypeTableRecord
  2
BYBLOCK
 70
     0
  3

 72
    65
 73
     0
 40
0.0
  0
LTYPE
  5
15
330
5
100
AcDbSymbolTableRecord
100
AcDbLinetypeTableRecord
  2
BYLAYER
 70
     0
  3

 72
    65
 73
     0
 40
0.0
  0
LTYPE
  5
16
330
5
100
AcDbSymbolTableRecord
100
AcDbLinetypeTableRecord
  2
CONTINUOUS
 70
     0
  3
Solid line
 72
    65
 73
     0
 40
0.0
  0
ENDTAB
  0
TABLE
  2
LAYER
  5
2
330
0
100
AcDbSymbolTable
 70
     4
  0
LAYER
  5
10
330
2
100
AcDbSymbolTableRecord
100
AcDbLayerTableRecord
  2
0
 70
     0
 62
     7
  6
CONTINUOUS
  0
LAYER
  5
34
330
2
100
AcDbSymbolTableRecord
100
AcDbLayerTableRecord
  2
L
 70
     0
 62
     7
  6
CONTINUOUS
  0
LAYER
  5
45
330
2
100
AcDbSymbolTableRecord
100
AcDbLayerTableRecord
  2
DEFPOINTS
 70
     0
 62
     7
  6
CONTINUOUS
  0
LAYER
  5
88
330
2
100
AcDbSymbolTableRecord
100
AcDbLayerTableRecord
  2
TX
 70
     0
 62
   150
  6
CONTINUOUS
  0
ENDTAB
  0
TABLE
  2
STYLE
  5
3
330
0
100
AcDbSymbolTable
 70
     3
  0
STYLE
  5
11
330
3
100
AcDbSymbolTableRecord
100
AcDbTextStyleTableRecord
  2
STANDARD
 70
     0
 40
0.0
 41
1.0
 50
0.0
 71
     0
 42
0.2
  3
txt
  4

  0
STYLE
  5
35
330
3
100
AcDbSymbolTableRecord
100
AcDbTextStyleTableRecord
  2
REG
 70
     0
 40
0.0
 41
1.0
 50
0.0
 71
     0
 42
0.09375
  3
E:\R13\com\fonts\ARCHITXT.SHX
  4

  0
STYLE
  5
36
330
3
100
AcDbSymbolTableRecord
100
AcDbTextStyleTableRecord
  2
DIMTXT
 70
     0
 40
0.0
 41
1.0
 50
0.0
 71
     0
 42
1.125
  3
archt.shx
  4

  0
ENDTAB
  0
TABLE
  2
VIEW
  5
6
330
0
100
AcDbSymbolTable
 70
     0
  0
ENDTAB
  0
TABLE
  2
UCS
  5
7
330
0
100
AcDbSymbolTable
 70
     0
  0
ENDTAB
  0
TABLE
  2
APPID
  5
9
330
0
100
AcDbSymbolTable
 70
     1
  0
APPID
  5
12
330
9
100
AcDbSymbolTableRecord
100
AcDbRegAppTableRecord
  2
ACAD
 70
     0
  0
ENDTAB
  0
TABLE
  2
DIMSTYLE
  5
A
330
0
100
AcDbSymbolTable
 70
     6
  0
DIMSTYLE
105
27
102
{ACAD_REACTORS
330
C1
330
CF
102
}
330
A
100
AcDbSymbolTableRecord
100
AcDbDimStyleTableRecord
  2
STANDARD
 70
     0
  3

  4

  5

  6

  7

 40
1.0
 41
0.18
 42
0.0625
 43
0.38
 44
0.18
 45
0.0
 46
0.0
 47
0.0
 48
0.0
140
0.18
141
0.09
142
0.0
143
25.4
144
1.0
145
0.0
146
1.0
147
0.09
 71
     0
 72
     0
 73
     1
 74
     1
 75
     0
 76
     0
 77
     0
 78
     0
170
     0
171
     2
172
     0
173
     0
174
     0
175
     0
176
     0
177
     0
178
     0
270
     2
271
     2
272
     2
273
     2
274
     2
340
11
275
     0
280
     0
281
     0
282
     0
283
     1
284
     0
285
     0
286
     0
287
     3
288
     0
  0
DIMSTYLE
105
37
330
A
100
AcDbSymbolTableRecord
100
AcDbDimStyleTableRecord
  2
1
 70
     0
  3

  4

  5

  6

  7

 40
1.0
 41
1.125
 42
0.5
 43
0.375
 44
1.19921875
 45
0.0
 46
0.5
 47
0.0
 48
0.0
140
1.125
141
0.125
142
0.0
143
25.4
144
1.0
145
0.0
146
0.8
147
0.5625
 71
     0
 72
     0
 73
     0
 74
     0
 75
     0
 76
     0
 77
     1
 78
     3
170
     0
171
     2
172
     1
173
     0
174
     1
175
     0
176
   133
177
   133
178
   150
270
     2
271
     3
272
     3
273
     2
274
     2
340
36
275
     0
280
     0
281
     0
282
     0
283
     1
284
     0
285
     0
286
     0
287
     4
288
     0
  0
DIMSTYLE
105
38
330
A
100
AcDbSymbolTableRecord
100
AcDbDimStyleTableRecord
  2
1$2
 70
     0
  3

  4

  5
DOTSMALL
  6

  7

 40
1.0
 41
1.5
 42
0.5
 43
0.375
 44
1.19921875
 45
0.0
 46
0.5
 47
0.0
 48
0.0
140
0.75
141
0.125
142
0.0
143
25.4
144
1.0
145
0.0
146
0.8
147
0.5625
 71
     0
 72
     0
 73
     0
 74
     0
 75
     0
 76
     0
 77
     1
 78
     3
170
     0
171
     2
172
     1
173
     0
174
     1
175
     0
176
   133
177
   133
178
   150
270
     2
271
     3
272
     3
273
     2
274
     2
340
36
275
     0
280
     0
281
     0
282
     0
283
     1
284
     0
285
     0
286
     0
287
     4
288
     0
  0
DIMSTYLE
105
39
330
A
100
AcDbSymbolTableRecord
100
AcDbDimStyleTableRecord
  2
1$4
 70
     0
  3

  4

  5

  6

  7
DOTSMALL
 40
1.0
 41
1.5
 42
0.5
 43
0.375
 44
1.19921875
 45
0.0
 46
0.5
 47
0.0
 48
0.0
140
0.75
141
0.125
142
0.0
143
25.4
144
1.0
145
0.0
146
0.8
147
0.5625
 71
     0
 72
     0
 73
     0
 74
     0
 75
     0
 76
     0
 77
     1
 78
     3
170
     0
171
     2
172
     1
173
     1
174
     1
175
     0
176
   133
177
   133
178
   150
270
     2
271
     3
272
     3
273
     2
274
     2
340
36
275
     0
280
     0
281
     0
282
     0
283
     1
284
     0
285
     0
286
     0
287
     4
288
     0
  0
DIMSTYLE
105
3A
330
A
100
AcDbSymbolTableRecord
100
AcDbDimStyleTableRecord
  2
1$3
 70
     0
  3

  4

  5
DOTSMALL
  6

  7

 40
1.0
 41
1.5
 42
0.5
 43
0.375
 44
1.19921875
 45
0.0
 46
0.5
 47
0.0
 48
0.0
140
0.75
141
0.125
142
0.0
143
25.4
144
1.0
145
0.0
146
0.8
147
0.5625
 71
     0
 72
     0
 73
     0
 74
     0
 75
     0
 76
     0
 77
     1
 78
     3
170
     0
171
     2
172
     1
173
     0
174
     1
175
     0
176
   133
177
   133
178
   150
270
     2
271
     3
272
     3
273
     2
274
     2
340
36
275
     0
280
     0
281
     0
282
     0
283
     1
284
     0
285
     0
286
     0
287
     4
288
     0
  0
DIMSTYLE
105
3B
330
A
100
AcDbSymbolTableRecord
100
AcDbDimStyleTableRecord
  2
1$7
 70
     0
  3

  4

  5

  6

  7

 40
1.0
 41
1.0
 42
0.5
 43
0.375
 44
1.19921875
 45
0.0
 46
0.5
 47
0.0
 48
0.0
140
0.75
141
0.125
142
0.0
143
25.4
144
1.0
145
0.0
146
0.8
147
0.5625
 71
     0
 72
     0
 73
     0
 74
     0
 75
     0
 76
     0
 77
     1
 78
     3
170
     0
171
     2
172
     1
173
     0
174
     1
175
     0
176
   133
177
   133
178
   150
270
     2
271
     3
272
     3
273
     2
274
     2
340
36
275
     0
280
     0
281
     0
282
     0
283
     1
284
     0
285
     0
286
     0
287
     4
288
     0
  0
ENDTAB
  0
TABLE
  2
BLOCK_RECORD
  5
1
330
0
100
AcDbSymbolTable
 70
     5
  0
BLOCK_RECORD
  5
1F
102
{ACAD_XDICTIONARY
360
332
102
}
330
1
100
AcDbSymbolTableRecord
100
AcDbBlockTableRecord
  2
*MODEL_SPACE
  0
BLOCK_RECORD
  5
1B
102
{ACAD_XDICTIONARY
360
330
102
}
330
1
100
AcDbSymbolTableRecord
100
AcDbBlockTableRecord
  2
*PAPER_SPACE
  0
BLOCK_RECORD
  5
2B
330
1
100
AcDbSymbolTableRecord
100
AcDbBlockTableRecord
  2
_DOT
  0
BLOCK_RECORD
  5
30
330
1
100
AcDbSymbolTableRecord
100
AcDbBlockTableRecord
  2
_DOTSMALL
  0
BLOCK_RECORD
  5
C2
330
1
100
AcDbSymbolTableRecord
100
AcDbBlockTableRecord
  2
*D3
  0
BLOCK_RECORD
  5
D0
330
1
100
AcDbSymbolTableRecord
100
AcDbBlockTableRecord
  2
*D4
  0
ENDTAB
  0
ENDSEC
  0
SECTION
  2
BLOCKS
  0
BLOCK
  5
20
330
1F
100
AcDbEntity
  8
0
100
AcDbBlockBegin
  2
*MODEL_SPACE
 70
     0
 10
0.0
 20
0.0
 30
0.0
  3
*MODEL_SPACE
  1

  0
ENDBLK
  5
21
330
1F
100
AcDbEntity
  8
0
100
AcDbBlockEnd
  0
BLOCK
  5
1C
330
1B
100
AcDbEntity
 67
     1
  8
0
100
AcDbBlockBegin
  2
*PAPER_SPACE
 70
     0
 10
0.0
 20
0.0
 30
0.0
  3
*PAPER_SPACE
  1

  0
ENDBLK
  5
1D
330
1B
100
AcDbEntity
 67
     1
  8
0
100
AcDbBlockEnd
  0
BLOCK
  5
2E
330
2B
100
AcDbEntity
  8
0
100
AcDbBlockBegin
  2
_DOT
 70
     0
 10
0.0
 20
0.0
 30
0.0
  3
_DOT
  1

  0
LWPOLYLINE
  5
2C
330
2B
100
AcDbEntity
  8
L
 62
     0
100
AcDbPolyline
 90
        2
 70
     1
 43
0.5
 10
-0.25
 20
0.0
 42
1.0
 10
0.25
 20
0.0
 42
1.0
  0
LINE
  5
2D
330
2B
100
AcDbEntity
  8
L
 62
     0
100
AcDbLine
 10
-0.5
 20
0.0
 30
0.0
 11
-1.0
 21
0.0
 31
0.0
  0
ENDBLK
  5
2F
330
2B
100
AcDbEntity
  8
0
100
AcDbBlockEnd
  0
BLOCK
  5
32
330
30
100
AcDbEntity
  8
0
 48
0.116666
100
AcDbBlockBegin
  2
_DOTSMALL
 70
     0
 10
0.0
 20
0.0
 30
0.0
  3
_DOTSMALL
  1

  0
LWPOLYLINE
  5
31
330
30
100
AcDbEntity
  8
0
  6
BYBLOCK
 62
     0
100
AcDbPolyline
 90
        2
 70
     1
 43
0.5
 10
-0.0625
 20
0.0
 42
1.0
 10
0.0625
 20
0.0
 42
1.0
  0
ENDBLK
  5
33
330
30
100
AcDbEntity
  8
0
 48
0.116666
100
AcDbBlockEnd
  0
BLOCK
  5
CD
330
C2
100
AcDbEntity
  8
0
100
AcDbBlockBegin
  2
*D3
 70
     1
 10
0.0
 20
0.0
 30
0.0
  3
*D3
  1

  0
LINE
  5
C3
330
C2
100
AcDbEntity
  8
0
 62
     0
100
AcDbLine
 10
0.3912029203992695
 20
6.386465416285439
 30
0.0
 11
0.3912029203992696
 21
8.150970737633343
 31
0.0
  0
LINE
  5
C4
330
C2
100
AcDbEntity
  8
0
 62
     0
100
AcDbLine
 10
12.39120292039927
 20
6.386465416285439
 30
0.0
 11
12.39120292039927
 21
8.150970737633343
 31
0.0
  0
LINE
  5
C5
330
C2
100
AcDbEntity
  8
0
 62
     0
100
AcDbLine
 10
0.5712029203992697
 20
7.970970737633344
 30
0.0
 11
6.001202920399269
 21
7.970970737633344
 31
0.0
  0
LINE
  5
C6
330
C2
100
AcDbEntity
  8
0
 62
     0
100
AcDbLine
 10
12.21120292039927
 20
7.970970737633344
 30
0.0
 11
6.781202920399269
 21
7.970970737633344
 31
0.0
  0
SOLID
  5
C7
330
C2
100
AcDbEntity
  8
0
 62
     0
100
AcDbTrace
 10
0.5712029203992697
 20
8.000970737633343
 30
0.0
 11
0.5712029203992697
 21
7.940970737633343
 31
0.0
 12
0.3912029203992696
 22
7.970970737633344
 32
0.0
 13
0.3912029203992696
 23
7.970970737633344
 33
0.0
  0
SOLID
  5
C8
330
C2
100
AcDbEntity
  8
0
 62
     0
100
AcDbTrace
 10
12.21120292039927
 20
8.000970737633343
 30
0.0
 11
12.21120292039927
 21
7.940970737633343
 31
0.0
 12
12.39120292039927
 22
7.970970737633344
 32
0.0
 13
12.39120292039927
 23
7.970970737633344
 33
0.0
  0
MTEXT
  5
C9
330
C2
100
AcDbEntity
  8
0
 62
     0
100
AcDbMText
 10
6.391202920399269
 20
7.970970737633344
 30
0.0
 40
0.18
 41
0.0
 71
     5
 72
     1
  1
\A1;12.00
1001
ACAD
1000
MTEXTBEGIN
1070
    73
1070
     1
1070
    44
1040
1.0
1070
    74
1070
     0
1000
MTEXTEND
  0
POINT
  5
CA
330
C2
100
AcDbEntity
  8
DEFPOINTS
 62
     0
100
AcDbPoint
 10
0.3912029203992695
 20
6.323965416285439
 30
0.0
  0
POINT
  5
CB
330
C2
100
AcDbEntity
  8
DEFPOINTS
 62
     0
100
AcDbPoint
 10
12.39120292039927
 20
6.323965416285439
 30
0.0
  0
POINT
  5
CC
330
C2
100
AcDbEntity
  8
DEFPOINTS
 62
     0
100
AcDbPoint
 10
12.39120292039927
 20
7.970970737633344
 30
0.0
  0
ENDBLK
  5
CE
330
C2
100
AcDbEntity
  8
0
100
AcDbBlockEnd
  0
BLOCK
  5
DB
330
D0
100
AcDbEntity
  8
0
100
AcDbBlockBegin
  2
*D4
 70
     1
 10
0.0
 20
0.0
 30
0.0
  3
*D4
  1

  0
LINE
  5
E7
330
D0
100
AcDbEntity
  8
0
 62
     0
100
AcDbLine
 10
0.9537029203992696
 20
7.346465416285361
 30
0.0
 11
-0.4351343719249385
 21
7.346465416285361
 31
0.0
  0
LINE
  5
E8
330
D0
100
AcDbEntity
  8
0
 62
     0
100
AcDbLine
 10
0.5787029203992696
 20
5.641465416285434
 30
0.0
 11
-0.4351343719249388
 21
5.641465416285434
 31
0.0
  0
LINE
  5
E9
330
D0
100
AcDbEntity
  8
0
 62
     0
100
AcDbLine
 10
-0.2551343719249385
 20
7.166465416285362
 30
0.0
 11
-0.2551343719249386
 21
6.673965416285398
 31
0.0
  0
LINE
  5
EA
330
D0
100
AcDbEntity
  8
0
 62
     0
100
AcDbLine
 10
-0.2551343719249388
 20
5.821465416285434
 30
0.0
 11
-0.2551343719249387
 21
6.313965416285398
 31
0.0
  0
SOLID
  5
EB
330
D0
100
AcDbEntity
  8
0
 62
     0
100
AcDbTrace
 10
-0.2851343719249384
 20
7.166465416285362
 30
0.0
 11
-0.2251343719249385
 21
7.166465416285362
 31
0.0
 12
-0.2551343719249385
 22
7.346465416285361
 32
0.0
 13
-0.2551343719249385
 23
7.346465416285361
 33
0.0
  0
SOLID
  5
EC
330
D0
100
AcDbEntity
  8
0
 62
     0
100
AcDbTrace
 10
-0.2851343719249388
 20
5.821465416285434
 30
0.0
 11
-0.2251343719249388
 21
5.821465416285434
 31
0.0
 12
-0.2551343719249388
 22
5.641465416285434
 32
0.0
 13
-0.2551343719249388
 23
5.641465416285434
 33
0.0
  0
MTEXT
  5
ED
330
D0
100
AcDbEntity
  8
0
 62
     0
100
AcDbMText
 10
-0.2551343719249397
 20
6.493965416285398
 30
0.0
 40
0.18
 41
0.0
 71
     5
 72
     1
  1
\A1;1.71
1001
ACAD
1000
MTEXTBEGIN
1070
    73
1070
     1
1070
    44
1040
1.0
1070
    74
1070
     0
1000
MTEXTEND
  0
POINT
  5
EE
330
D0
100
AcDbEntity
  8
DEFPOINTS
 62
     0
100
AcDbPoint
 10
1.016202920399269
 20
7.346465416285361
 30
0.0
  0
POINT
  5
EF
330
D0
100
AcDbEntity
  8
DEFPOINTS
 62
     0
100
AcDbPoint
 10
0.6412029203992696
 20
5.641465416285434
 30
0.0
  0
POINT
  5
F0
330
D0
100
AcDbEntity
  8
DEFPOINTS
 62
     0
100
AcDbPoint
 10
-0.2551343719249388
 20
5.641465416285434
 30
0.0
  0
ENDBLK
  5
DC
330
D0
100
AcDbEntity
  8
0
100
AcDbBlockEnd
  0
ENDSEC
  0
SECTION
  2
ENTITIES
  0
LWPOLYLINE
  5
BD
330
1F
100
AcDbEntity
  8
L
 62
     5
 48
0.233332
100
AcDbPolyline
 90
        2
 70
     0
 43
0.028125
 10
1.194416826049446
 20
5.01664856422286
 10
3.591517041566744
 20
5.01664856422286
  0
TEXT
  5
BE
330
1F
100
AcDbEntity
  8
L
 62
     3
 48
0.233332
100
AcDbText
 10
1.288152668730431
 20
5.110384406903902
 30
0.0
 40
0.140625
  1
WIDE BODY #2005
  7
REG
100
AcDbText
  0
TEXT
  5
BF
330
1F
100
AcDbEntity
  8
TX
 48
0.233332
100
AcDbText
 10
1.288152668730431
 20
4.829162721541818
 30
0.0
 40
0.09375
  1
SCALE : FULL SIZE
  7
REG
 11
1.288152668730431
 21
4.922912721541818
 31
0.0
100
AcDbText
 73
     3
  0
DIMENSION
  5
C1
330
1F
100
AcDbEntity
  8
0
100
AcDbDimension
  2
*D3
 10
12.39120292039927
 20
7.970970737633344
 30
0.0
 11
6.391202920399269
 21
7.970970737633344
 31
0.0
 70
    32
  3
STANDARD
100
AcDbAlignedDimension
 13
0.3912029203992695
 23
6.323965416285439
 33
0.0
 14
12.39120292039927
 24
6.323965416285439
 34
0.0
100
AcDbRotatedDimension
  0
DIMENSION
  5
CF
330
1F
100
AcDbEntity
  8
0
100
AcDbDimension
  2
*D4
 10
-0.2551343719249388
 20
5.641465416285434
 30
0.0
 11
-0.2551343719249397
 21
6.493965416285398
 31
0.0
 70
    32
  3
STANDARD
100
AcDbAlignedDimension
 13
1.016202920399269
 23
7.346465416285361
 33
0.0
 14
0.6412029203992696
 24
5.641465416285434
 34
0.0
 50
90.0
100
AcDbRotatedDimension
  0
LWPOLYLINE
  5
203
330
1F
100
AcDbEntity
  8
L
 62
     5
100
AcDbPolyline
 90
      267
 70
     1
 43
0.0
 10
1.424202920399171
 20
6.716465416285309
 42
1.000000000000003
 10
1.424202920399171
 20
6.776465416285425
 10
1.323291388888652
 20
6.776465416285496
 42
-0.226445748254202
 10
1.299187334963963
 20
6.787971966503751
 42
0.0754290092253378
 10
1.22996565693497
 20
6.851201361798611
 42
-0.2503365869299845
 10
1.216202920399314
 20
6.876967167593541
 10
1.216202920399314
 20
6.956465416285375
 10
1.141202920399269
 20
6.956465416285375
 10
1.141202920399269
 20
7.221465416285361
 10
11.64120292039926
 20
7.221465416285361
 10
11.64120292039926
 20
6.956465416285375
 10
11.56620292039922
 20
6.956465416285375
 10
11.56620292039926
 20
6.876967167593541
 42
-0.2503365869299845
 10
11.55244018386348
 20
6.85120136179874
 42
0.0754290092253646
 10
11.48321850583473
 20
6.787971966503807
 42
-0.2264457482546307
 10
11.45911445190988
 20
6.776465416285425
 10
11.35820292039936
 20
6.776465416285368
 42
1.000000000000003
 10
11.35820292039936
 20
6.716465416285366
 10
11.4282029203993
 20
6.716465416285366
 10
11.4282029203993
 20
6.616465416285457
 10
11.32820292039939
 20
6.616465416285457
 10
11.32820292039939
 20
6.459465416285418
 10
11.4282029203993
 20
6.459465416285418
 10
11.4282029203993
 20
6.335465416285394
 42
0.4142135623730951
 10
11.45920292039925
 20
6.304465416285445
 10
11.54920292039917
 20
6.304465416285388
 42
-0.4142135623736321
 10
11.61120292039929
 20
6.242465416285433
 10
11.61120292039946
 20
6.166465416285412
 42
-0.4142135623736322
 10
11.54920292039917
 20
6.1044654162854
 10
11.26820292039922
 20
6.104465416285457
 42
-0.4142135623730951
 10
11.23720292039927
 20
6.135465416285462
 10
11.23720292039932
 20
6.163465416285369
 42
0.4142135623741692
 10
11.20620292039932
 20
6.194465416285432
 10
11.14320292039922
 20
6.194465416285488
 42
0.4142135623741692
 10
11.11220292039927
 20
6.163465416285369
 10
11.11220292039932
 20
6.135465416285462
 42
-0.4142135623730951
 10
11.08120292039932
 20
6.1044654162854
 10
10.76720292039924
 20
6.104465416285457
 42
-0.4142135623730951
 10
10.73620292039929
 20
6.135465416285462
 10
10.73620292039935
 20
6.163465416285369
 42
0.4142135623741692
 10
10.70520292039934
 20
6.194465416285432
 10
10.64220292039924
 20
6.194465416285488
 42
0.4142135623741692
 10
10.61120292039929
 20
6.163465416285369
 10
10.61120292039924
 20
6.03546541628544
 42
0.4142135623741692
 10
10.64220292039924
 20
6.004465416285377
 10
11.54920292039917
 20
6.004465416285434
 42
-0.4142135623741691
 10
11.61120292039929
 20
5.942465416285365
 10
11.61120292039929
 20
5.93846541628546
 10
11.51620292039926
 20
5.938465416285403
 42
1.000000000000003
 10
11.51620292039926
 20
5.878465416285401
 10
11.61120292039929
 20
5.878465416285401
 10
11.61120292039929
 20
5.856465416285466
 10
11.61120292039929
 20
5.766465416285434
 42
0.4142135623730951
 10
11.73620292039929
 20
5.641465416285434
 10
12.14120292039926
 20
5.641465416285434
 42
0.4142135623730951
 10
12.26620292039926
 20
5.766465416285434
 10
12.26620292039926
 20
5.856465416285466
 10
12.36120292039929
 20
5.856465416285409
 42
1.000000000000003
 10
12.36120292039929
 20
5.916465416285412
 10
12.26620292039926
 20
5.916465416285412
 10
12.26620292039921
 20
6.2294654162854
 42
-0.414213562373632
 10
12.32820292039916
 20
6.291465416285412
 10
12.35870292039924
 20
6.291465416285412
 42
1.000000000000003
 10
12.35870292039924
 20
6.356465416285466
 10
12.18620292039934
 20
6.356465416285466
 10
12.18620292039911
 20
6.32646541628538
 42
-0.2679491924248619
 10
12.1822029203992
 20
6.319537213055134
 10
12.16520292039933
 20
6.309722258479025
 42
0.5773502691975639
 10
12.16520292039938
 20
6.29586585201833
 10
12.18220292039922
 20
6.286050897442164
 42
-0.5773502691951956
 10
12.1822029203992
 20
6.27219449098164
 10
12.16520292039936
 20
6.26237953640536
 42
0.5773502691951953
 10
12.16520292039938
 20
6.248523129944835
 10
12.18220292039921
 20
6.238708175368641
 42
-0.5773502691975635
 10
12.1822029203992
 20
6.224851768908031
 10
12.16520292039938
 20
6.215036814331837
 42
0.5773502691975639
 10
12.16520292039938
 20
6.201180407871227
 10
12.18220292039922
 20
6.191365453295061
 42
-0.5773502691951956
 10
12.1822029203992
 20
6.177509046834536
 10
12.16520292039936
 20
6.167694092258257
 42
0.5773502691951953
 10
12.16520292039938
 20
6.153837685797732
 10
12.18220292039926
 20
6.144022731221623
 42
-0.577350269197564
 10
12.1822029203992
 20
6.130166324760928
 10
12.16520292039933
 20
6.120351370184819
 42
0.5773502691975639
 10
12.16520292039938
 20
6.106494963724124
 10
12.18220292039922
 20
6.096680009147958
 42
-0.5773502691951956
 10
12.1822029203992
 20
6.082823602687433
 10
12.16520292039936
 20
6.073008648111153
 42
0.5773502691951953
 10
12.16520292039938
 20
6.059152241650629
 10
12.18220292039921
 20
6.049337287074434
 42
-0.5773502691975635
 10
12.1822029203992
 20
6.035480880613825
 10
12.16520292039938
 20
6.02566592603763
 42
0.5773502691975639
 10
12.16520292039938
 20
6.01180951957702
 10
12.18220292039922
 20
6.001994565000854
 42
-0.5773502691951956
 10
12.1822029203992
 20
5.98813815854033
 10
12.16520292039936
 20
5.97832320396405
 42
0.5773502691951953
 10
12.16520292039938
 20
5.964466797503526
 10
12.18220292039916
 20
5.954651842927241
 42
-0.2679491924267659
 10
12.18620292039934
 20
5.947723639696967
 10
12.18620292039928
 20
5.816465416285389
 42
-0.4142135623727033
 10
12.1012029203993
 20
5.731465416285466
 10
12.04120292039936
 20
5.731465416285352
 42
-0.4142135623730951
 10
11.95620292039932
 20
5.816465416285389
 10
11.95620292039943
 20
5.971395000733771
 42
-0.2679491924286697
 10
11.96020292039922
 20
5.978323203964016
 10
11.9772029203993
 20
5.988138158540296
 42
0.5773502691951953
 10
11.97720292039928
 20
6.001994565000821
 10
11.96020292039917
 20
6.01180951957693
 42
-0.5773502691975639
 10
11.96020292039922
 20
6.025665926037625
 10
11.97720292039933
 20
6.035480880613734
 42
0.5773502691975639
 10
11.97720292039928
 20
6.049337287074429
 10
11.9602029203992
 20
6.059152241650595
 42
-0.5773502691951953
 10
11.96020292039922
 20
6.07300864811112
 10
11.9772029203993
 20
6.082823602687399
 42
0.5773502691951953
 10
11.97720292039928
 20
6.096680009147924
 10
11.96020292039922
 20
6.106494963724118
 42
-0.5773502691975639
 10
11.96020292039922
 20
6.120351370184728
 10
11.97720292039928
 20
6.130166324760923
 42
0.5773502691975639
 10
11.97720292039928
 20
6.144022731221532
 10
11.9602029203992
 20
6.153837685797698
 42
-0.5773502691951953
 10
11.96020292039922
 20
6.167694092258223
 10
11.9772029203993
 20
6.177509046834503
 42
0.5773502691951953
 10
11.97720292039928
 20
6.191365453295027
 10
11.96020292039917
 20
6.201180407871136
 42
-0.5773502691975639
 10
11.96020292039922
 20
6.215036814331831
 10
11.97720292039933
 20
6.224851768907941
 42
0.5773502691975639
 10
11.97720292039928
 20
6.238708175368635
 10
11.9602029203992
 20
6.248523129944802
 42
-0.5773502691951953
 10
11.96020292039922
 20
6.262379536405326
 10
11.9772029203993
 20
6.272194490981606
 42
0.5773502691951953
 10
11.97720292039928
 20
6.28605089744213
 10
11.96020292039922
 20
6.295865852018325
 42
-0.5773502691975639
 10
11.96020292039922
 20
6.309722258478934
 10
11.97720292039928
 20
6.319537213055129
 42
0.5773502691975639
 10
11.97720292039928
 20
6.333393619515739
 10
11.93724139617227
 20
6.356465416285466
 10
11.90220292039923
 20
6.356465416285352
 42
0.4142135623730951
 10
11.87120292039928
 20
6.325465416285403
 10
11.87120292039928
 20
5.816465416285389
 42
-1.000000000000003
 10
11.70120292039921
 20
5.816465416285389
 10
11.70120292039925
 20
6.380263498680513
 42
0.3401833174418518
 10
11.67814800049081
 20
6.410228072803039
 42
-0.896543770911829
 10
11.73392603252744
 20
6.778806291534414
 42
0.4263333664991863
 10
11.76620292039926
 20
6.809779982908942
 10
11.76620292039926
 20
7.346465416285361
 10
1.016202920399269
 20
7.346465416285361
 10
1.016202920399189
 20
6.809779982908942
 42
0.426333366499186
 10
1.048479808271097
 20
6.778806291534422
 42
-0.896543770911829
 10
1.104257840307749
 20
6.410228072802944
 42
0.3401833174418516
 10
1.081202920399324
 20
6.380263498680513
 10
1.081202920399324
 20
5.816465416285389
 42
-1.000000000000003
 10
0.9112029203992513
 20
5.816465416285389
 10
0.9112029203992522
 20
6.325465416285403
 42
0.4142135623730951
 10
0.8802029203993022
 20
6.356465416285352
 10
0.8451644446262669
 20
6.356465416285466
 10
0.8052029203992045
 20
6.333393619515829
 42
0.5773502691975639
 10
0.8052029203992567
 20
6.319537213055134
 10
0.8222029203993617
 20
6.309722258479025
 42
-0.577350269197564
 10
0.8222029203993095
 20
6.29586585201833
 10
0.8052029203992374
 20
6.286050897442164
 42
0.5773502691951953
 10
0.8052029203992567
 20
6.27219449098164
 10
0.8222029203993288
 20
6.26237953640536
 42
-0.5773502691951956
 10
0.8222029203993095
 20
6.248523129944835
 10
0.8052029203992537
 20
6.238708175368641
 42
0.5773502691975639
 10
0.8052029203992567
 20
6.224851768908031
 10
0.8222029203993125
 20
6.215036814331837
 42
-0.5773502691975635
 10
0.8222029203993095
 20
6.201180407871227
 10
0.8052029203992374
 20
6.191365453295061
 42
0.5773502691951953
 10
0.8052029203992567
 20
6.177509046834536
 10
0.8222029203993288
 20
6.167694092258257
 42
-0.5773502691951956
 10
0.8222029203993095
 20
6.153837685797732
 10
0.8052029203992045
 20
6.144022731221623
 42
0.5773502691975639
 10
0.8052029203992567
 20
6.130166324760928
 10
0.8222029203993617
 20
6.120351370184819
 42
-0.577350269197564
 10
0.8222029203993095
 20
6.106494963724124
 10
0.8052029203992374
 20
6.096680009147958
 42
0.5773502691951953
 10
0.8052029203992567
 20
6.082823602687433
 10
0.8222029203993288
 20
6.073008648111153
 42
-0.5773502691951956
 10
0.8222029203993095
 20
6.059152241650629
 10
0.8052029203992537
 20
6.049337287074434
 42
0.5773502691975639
 10
0.8052029203992567
 20
6.035480880613825
 10
0.8222029203993125
 20
6.02566592603763
 42
-0.5773502691975635
 10
0.8222029203993095
 20
6.01180951957702
 10
0.8052029203992374
 20
6.001994565000854
 42
0.5773502691951953
 10
0.8052029203992567
 20
5.98813815854033
 10
0.8222029203993013
 20
5.978323203964002
 42
-0.2679491924286697
 10
0.8262029203992149
 20
5.971395000733771
 10
0.8262029203992149
 20
5.816465416285389
 42
-0.4142135623730951
 10
0.7412029203991786
 20
5.731465416285352
 10
0.6812029203992332
 20
5.731465416285523
 42
-0.4142135623727035
 10
0.5962029203991968
 20
5.816465416285389
 10
0.5962029203993228
 20
5.947723639696967
 42
-0.2679491924267659
 10
0.6002029203993296
 20
5.954651842927326
 10
0.6172029203994014
 20
5.964466797503493
 42
0.5773502691951953
 10
0.6172029203993823
 20
5.978323203964016
 10
0.6002029203993101
 20
5.988138158540296
 42
-0.5773502691951953
 10
0.6002029203993296
 20
6.001994565000821
 10
0.6172029203994346
 20
6.01180951957693
 42
0.5773502691975639
 10
0.6172029203993823
 20
6.025665926037625
 10
0.6002029203992774
 20
6.035480880613734
 42
-0.5773502691975639
 10
0.6002029203993296
 20
6.049337287074429
 10
0.6172029203994014
 20
6.059152241650596
 42
0.5773502691951953
 10
0.6172029203993823
 20
6.07300864811112
 10
0.6002029203993101
 20
6.082823602687399
 42
-0.5773502691951953
 10
0.6002029203993296
 20
6.096680009147924
 10
0.6172029203993854
 20
6.106494963724118
 42
0.5773502691975639
 10
0.6172029203993823
 20
6.120351370184728
 10
0.6002029203993266
 20
6.130166324760923
 42
-0.5773502691975639
 10
0.6002029203993296
 20
6.144022731221532
 10
0.6172029203994014
 20
6.153837685797699
 42
0.5773502691951953
 10
0.6172029203993823
 20
6.167694092258223
 10
0.6002029203993101
 20
6.177509046834503
 42
-0.5773502691951953
 10
0.6002029203993296
 20
6.191365453295027
 10
0.6172029203994346
 20
6.201180407871136
 42
0.5773502691975639
 10
0.6172029203993823
 20
6.215036814331831
 10
0.6002029203992774
 20
6.224851768907941
 42
-0.5773502691975639
 10
0.6002029203993296
 20
6.238708175368635
 10
0.6172029203994014
 20
6.248523129944802
 42
0.5773502691951953
 10
0.6172029203993823
 20
6.262379536405326
 10
0.6002029203993101
 20
6.272194490981606
 42
-0.5773502691951953
 10
0.6002029203993296
 20
6.28605089744213
 10
0.6172029203993854
 20
6.295865852018325
 42
0.5773502691975639
 10
0.6172029203993823
 20
6.309722258478934
 10
0.6002029203993786
 20
6.31953721305522
 42
-0.2679491924248621
 10
0.5962029203991968
 20
6.32646541628538
 10
0.5962029203991968
 20
6.356465416285466
 10
0.4237029203992969
 20
6.356465416285466
 42
1.000000000000003
 10
0.4237029203992968
 20
6.291465416285412
 10
0.4542029203993714
 20
6.291465416285468
 42
-0.414213562373632
 10
0.5162029203992696
 20
6.2294654162854
 10
0.5162029203992696
 20
5.916465416285412
 10
0.4212029203992424
 20
5.916465416285468
 42
1.000000000000003
 10
0.4212029203992423
 20
5.856465416285352
 10
0.5162029203992696
 20
5.856465416285466
 10
0.5162029203992696
 20
5.766465416285434
 42
0.4142135623730951
 10
0.6412029203992696
 20
5.641465416285434
 10
1.046202920399242
 20
5.641465416285434
 42
0.4142135623730951
 10
1.171202920399242
 20
5.766465416285434
 10
1.171202920399071
 20
5.942465416285365
 42
-0.4142135623741692
 10
1.233202920399367
 20
6.004465416285377
 10
2.140202920399293
 20
6.00446541628532
 42
0.4142135623741695
 10
2.171202920399242
 20
6.03546541628544
 10
2.171202920399299
 20
6.163465416285369
 42
0.4142135623741692
 10
2.140202920399293
 20
6.194465416285432
 10
2.077202920399191
 20
6.194465416285488
 42
0.4142135623741692
 10
2.046202920399242
 20
6.163465416285369
 10
2.046202920399299
 20
6.135465416285462
 42
-0.4142135623730951
 10
2.015202920399293
 20
6.1044654162854
 10
1.701202920399214
 20
6.104465416285457
 42
-0.4142135623730951
 10
1.670202920399265
 20
6.135465416285462
 10
1.670202920399322
 20
6.163465416285369
 42
0.4142135623741692
 10
1.639202920399316
 20
6.194465416285432
 10
1.576202920399214
 20
6.194465416285488
 42
0.4142135623741692
 10
1.545202920399265
 20
6.163465416285369
 10
1.545202920399322
 20
6.135465416285462
 42
-0.4142135623730951
 10
1.514202920399316
 20
6.1044654162854
 10
1.233202920399367
 20
6.104465416285457
 42
-0.4142135623736322
 10
1.171202920399242
 20
6.166465416285412
 10
1.171202920399071
 20
6.242465416285433
 42
-0.4142135623736321
 10
1.233202920399367
 20
6.304465416285445
 10
1.323202920399285
 20
6.304465416285445
 42
0.4142135623730951
 10
1.354202920399234
 20
6.335465416285394
 10
1.354202920399234
 20
6.459465416285418
 10
1.454202920399371
 20
6.459465416285418
 10
1.454202920399371
 20
6.616465416285457
 10
1.354202920399234
 20
6.616465416285457
 10
1.354202920399234
 20
6.716465416285366
  0
ENDSEC
  0
SECTION
  2
OBJECTS
  0
DICTIONARY
  5
C
330
0
100
AcDbDictionary
  3
ACAD_GROUP
350
D
  3
ACAD_LAYOUT
350
1A
  3
ACAD_MLINESTYLE
350
17
  3
ACAD_PLOTSETTINGS
350
19
  3
ACAD_PLOTSTYLENAME
350
E
  3
ACDBHEADERROUNDTRIPXREC
350
310
  0
DICTIONARY
  5
332
330
1F
100
AcDbDictionary
280
     1
  3
ACAD_LAYOUTSELFREF
360
333
  0
DICTIONARY
  5
330
330
1B
100
AcDbDictionary
280
     1
  3
ACAD_LAYOUTSELFREF
360
331
  0
DICTIONARY
  5
D
102
{ACAD_REACTORS
330
C
102
}
330
C
100
AcDbDictionary
  0
DICTIONARY
  5
1A
102
{ACAD_REACTORS
330
C
102
}
330
C
100
AcDbDictionary
  0
DICTIONARY
  5
17
102
{ACAD_REACTORS
330
C
102
}
330
C
100
AcDbDictionary
  3
STANDARD
350
18
  0
DICTIONARY
  5
19
102
{ACAD_REACTORS
330
C
102
}
330
C
100
AcDbDictionary
  0
ACDBDICTIONARYWDFLT
  5
E
102
{ACAD_REACTORS
330
C
102
}
330
C
100
AcDbDictionary
281
     1
  3
Normal
350
F
100
AcDbDictionaryWithDefault
340
F
  0
DICTIONARY
  5
310
102
{ACAD_REACTORS
330
C
102
}
330
C
100
AcDbDictionary
  3
CEPSNTYPE
350
31A
  3
FINGERPRINTGUID
350
31B
  3
HYPERLINKBASE
350
313
  3
INSUNITS
350
319
  3
LAYOUTDICT
350
315
  3
LWETCUNION
350
318
  3
PLOTSETDICT
350
316
  3
PLOTSTYLNAMDICT
350
317
  3
PSVPSCALE
350
31D
  3
PUCSBASE
350
320
  3
PUCSORGBACK
350
326
  3
PUCSORGBOTTOM
350
322
  3
PUCSORGFRONT
350
325
  3
PUCSORGLEFT
350
323
  3
PUCSORGRIGHT
350
324
  3
PUCSORGTOP
350
321
  3
PUCSORTHOREF
350
31E
  3
PUCSORTHOVIEW
350
31F
  3
STYLESHEET
350
314
  3
TSTACKALIGN
350
311
  3
TSTACKSIZE
350
312
  3
UCSBASE
350
329
  3
UCSORGBACK
350
32F
  3
UCSORGBOTTOM
350
32B
  3
UCSORGFRONT
350
32E
  3
UCSORGLEFT
350
32C
  3
UCSORGRIGHT
350
32D
  3
UCSORGTOP
350
32A
  3
UCSORTHOREF
350
327
  3
UCSORTHOVIEW
350
328
  3
VERSIONGUID
350
31C
  0
XRECORD
  5
333
102
{ACAD_REACTORS
330
332
102
}
330
332
100
AcDbXrecord
340
1F
  0
XRECORD
  5
331
102
{ACAD_REACTORS
330
330
102
}
330
330
100
AcDbXrecord
340
1B
  0
MLINESTYLE
  5
18
102
{ACAD_REACTORS
330
17
102
}
330
17
100
AcDbMlineStyle
  2
STANDARD
 70
     0
  3

 62
   256
 51
90.0
 52
90.0
 71
     2
 49
0.5
 62
   256
  6
BYLAYER
 49
-0.5
 62
   256
  6
BYLAYER
  0
ACDBPLACEHOLDER
  5
F
102
{ACAD_REACTORS
330
E
102
}
330
E
100
AcDbPlaceHolder
280
     0
  0
XRECORD
  5
31A
102
{ACAD_REACTORS
330
310
102
}
330
310
100
AcDbXrecord
 90
        0
  0
XRECORD
  5
31B
102
{ACAD_REACTORS
330
310
102
}
330
310
100
AcDbXrecord
  1
{DC175E3D-AE85-11D5-9A93-0040C77E826B}
  0
XRECORD
  5
313
102
{ACAD_REACTORS
330
310
102
}
330
310
100
AcDbXrecord
  1

  0
XRECORD
  5
319
102
{ACAD_REACTORS
330
310
102
}
330
310
100
AcDbXrecord
 90
        1
  0
XRECORD
  5
315
102
{ACAD_REACTORS
330
310
102
}
330
310
100
AcDbXrecord
340
1A
  0
XRECORD
  5
318
102
{ACAD_REACTORS
330
310
102
}
330
310
100
AcDbXrecord
 90
    10781
  0
XRECORD
  5
316
102
{ACAD_REACTORS
330
310
102
}
330
310
100
AcDbXrecord
340
19
  0
XRECORD
  5
317
102
{ACAD_REACTORS
330
310
102
}
330
310
100
AcDbXrecord
340
E
  0
XRECORD
  5
31D
102
{ACAD_REACTORS
330
310
102
}
330
310
100
AcDbXrecord
 40
0.0
  0
XRECORD
  5
320
102
{ACAD_REACTORS
330
310
102
}
330
310
100
AcDbXrecord
340
0
  0
XRECORD
  5
326
102
{ACAD_REACTORS
330
310
102
}
330
310
100
AcDbXrecord
 10
0.0
 20
0.0
 30
0.0
  0
XRECORD
  5
322
102
{ACAD_REACTORS
330
310
102
}
330
310
100
AcDbXrecord
 10
0.0
 20
0.0
 30
0.0
  0
XRECORD
  5
325
102
{ACAD_REACTORS
330
310
102
}
330
310
100
AcDbXrecord
 10
0.0
 20
0.0
 30
0.0
  0
XRECORD
  5
323
102
{ACAD_REACTORS
330
310
102
}
330
310
100
AcDbXrecord
 10
0.0
 20
0.0
 30
0.0
  0
XRECORD
  5
324
102
{ACAD_REACTORS
330
310
102
}
330
310
100
AcDbXrecord
 10
0.0
 20
0.0
 30
0.0
  0
XRECORD
  5
321
102
{ACAD_REACTORS
330
310
102
}
330
310
100
AcDbXrecord
 10
0.0
 20
0.0
 30
0.0
  0
XRECORD
  5
31E
102
{ACAD_REACTORS
330
310
102
}
330
310
100
AcDbXrecord
340
0
  0
XRECORD
  5
31F
102
{ACAD_REACTORS
330
310
102
}
330
310
100
AcDbXrecord
 70
     0
  0
XRECORD
  5
314
102
{ACAD_REACTORS
330
310
102
}
330
310
100
AcDbXrecord
  1

  0
XRECORD
  5
311
102
{ACAD_REACTORS
330
310
102
}
330
310
100
AcDbXrecord
 90
        1
  0
XRECORD
  5
312
102
{ACAD_REACTORS
330
310
102
}
330
310
100
AcDbXrecord
 90
       70
  0
XRECORD
  5
329
102
{ACAD_REACTORS
330
310
102
}
330
310
100
AcDbXrecord
340
0
  0
XRECORD
  5
32F
102
{ACAD_REACTORS
330
310
102
}
330
310
100
AcDbXrecord
 10
0.0
 20
0.0
 30
0.0
  0
XRECORD
  5
32B
102
{ACAD_REACTORS
330
310
102
}
330
310
100
AcDbXrecord
 10
0.0
 20
0.0
 30
0.0
  0
XRECORD
  5
32E
102
{ACAD_REACTORS
330
310
102
}
330
310
100
AcDbXrecord
 10
0.0
 20
0.0
 30
0.0
  0
XRECORD
  5
32C
102
{ACAD_REACTORS
330
310
102
}
330
310
100
AcDbXrecord
 10
0.0
 20
0.0
 30
0.0
  0
XRECORD
  5
32D
102
{ACAD_REACTORS
330
310
102
}
330
310
100
AcDbXrecord
 10
0.0
 20
0.0
 30
0.0
  0
XRECORD
  5
32A
102
{ACAD_REACTORS
330
310
102
}
330
310
100
AcDbXrecord
 10
0.0
 20
0.0
 30
0.0
  0
XRECORD
  5
327
102
{ACAD_REACTORS
330
310
102
}
330
310
100
AcDbXrecord
340
0
  0
XRECORD
  5
328
102
{ACAD_REACTORS
330
310
102
}
330
310
100
AcDbXrecord
 70
     0
  0
XRECORD
  5
31C
102
{ACAD_REACTORS
330
310
102
}
330
310
100
AcDbXrecord
  1
{E0B68875-F617-4514-8650-E166738AB10F}
  0
ENDSEC
  0
EOF
